Download Hanuman.com (2013) Kolkata Bengali Movie_Theaterical Trailer and Torrent

login Se connecter create account Créer un compte Separator English  Francais  Espanol  Italiano  Deutsch
Torrent > Miscellaneous > Unsorted > Hanuman.com (2013) Kolkata Bengali Movie_Theaterical Trailer and


Hanuman.com (2013) Kolkata Bengali Movie_Theaterical Trailer and


D'informations sur Hanuman.com (2013) Kolkata Bengali Movie_Theaterical Trailer and

- Télécharger ce torrent

Seeds 15
Peers 9
Taille 66.2 MB
Date Tuesday, 19 November 2013 at 15:48:55
Commentts 0
Catégorie Miscellaneous Unsorted
Hash 4dbf1262c8ec5f71fc72b8b40ad460f168692cbc
Drapeau Verified (0) - Fake (0) - Password (0) - Virus (0)
Uploader Anonymous

Description

[img]http://s22.postimg.org/jf0cw5opd/hanuman3_zps45ba14d7.jpg[/img] [b] Movie Name :- HANUMAN.COM Star Cast : Prosenjit Chatterjee Kaushik Sen Kanchan Mallik Rudranil Ghosh Saskia, Moushmi among others.[/b] [b]Trailer : Media Info :-[/b] [b]General Complete name : Hanuman. com trailer-HD.mp4 Format : MPEG-4 Format profile : Base Media / Version 2 Codec ID : mp42 File size : 31.4 MiB Duration : 1mn 51s Overall bit rate mode : Variable Overall bit rate : 2 362 Kbps Encoded date : UTC 2013-11-19 13:55:29 Tagged date : UTC 2013-11-19 14:25:31 Writing application : HandBrake 0.9.5 2011010300 Video ID : 1 Format : AVC Format/Info : Advanced Video Codec Format profile : High@L5.0 Format settings, CABAC : Yes Format settings, ReFrames : 16 frames Codec ID : avc1 Codec ID/Info : Advanced Video Coding Duration : 1mn 51s Bit rate mode : Variable Bit rate : 2 230 Kbps Width : 1 280 pixels Height : 544 pixels Display aspect ratio : 2.35:1 Frame rate mode : Constant Frame rate : 29.970 fps Color space : YUV Chroma subsampling : 4:2:0 Bit depth : 8 bits Scan type : Progressive Bits/(Pixel*Frame) : 0.107 Stream size : 29.7 MiB (94%) Writing library : x264 core 112 Audio ID : 2 Format : AAC Format/Info : Advanced Audio Codec Format profile : LC Codec ID : 40 Duration : 1mn 51s Bit rate mode : Variable Bit rate : 128 Kbps Maximum bit rate : 169 Kbps Channel count : 2 channels Channel positions : Front: L R Sampling rate : 44.1 KHz Compression mode : Lossy Delay relative to video : 67ms [/b] [b]Song - Ikir Mikir : Media Info :-[/b] [b]General Complete name : Ikir Mikir-HD.mp4 Format : MPEG-4 Format profile : Base Media / Version 2 Codec ID : mp42 File size : 31.8 MiB Duration : 1mn 41s Overall bit rate mode : Variable Overall bit rate : 2 629 Kbps Video ID : 1 Format : AVC Format/Info : Advanced Video Codec Format profile : High@L4.0 Format settings, CABAC : Yes Format settings, ReFrames : 15 frames Codec ID : avc1 Codec ID/Info : Advanced Video Coding Duration : 1mn 41s Bit rate mode : Variable Bit rate : 2 372 Kbps Width : 1 198 pixels Height : 408 pixels Display aspect ratio : 2.936 Frame rate mode : Constant Frame rate : 25.000 fps Color space : YUV Chroma subsampling : 4:2:0 Bit depth : 8 bits Scan type : Progressive Bits/(Pixel*Frame) : 0.194 Stream size : 28.7 MiB (90%) Writing library : x264 core 112 Audio ID : 2 Format : AAC Format/Info : Advanced Audio Codec Format profile : LC Codec ID : 40 Duration : 1mn 41s Bit rate mode : Variable Bit rate : 253 Kbps Maximum bit rate : 320 Kbps Channel count : 2 channels Channel positions : Front: L R Sampling rate : 44.1 KHz [/b] [b]Screen :-[/b] [b]Trailer :-[/b] [img]http://s22.postimg.org/wkb9oit75/vlcsnap_2013_11_19_19h58m08s27.png[/img] [img]http://s22.postimg.org/c1gdjgf9t/vlcsnap_2013_11_19_19h59m29s69.png[/img] [img]http://s22.postimg.org/yu3zd0rip/vlcsnap_2013_11_19_19h59m40s174.jpg[/img] [b]Song - Ikir Mikir[/b] [img]http://s22.postimg.org/unj4xorwx/vlcsnap_2013_11_19_20h27m39s74.png[/img] [img]http://s22.postimg.org/tzaaeqt75/vlcsnap_2013_11_19_20h27m49s178.png[/img] [img]http://s22.postimg.org/8e57r4wgh/vlcsnap_2013_11_19_20h27m57s0.png[/img] [img]http://s22.postimg.org/bhay4358x/thanks.jpg[/img] Source :- Bengali-Mp3 [b]*Credit Goes to Original Ripper*[/b]

Commentaires sur Hanuman.com (2013) Kolkata Bengali Movie_Theaterical Trailer and

00 COMMENT(S) INSIDE

Aucun commentaire disponible pour ce fichier !



Post a comment

Username
Password



Files

Filename Size
1278239_220907474742025_513386750_n.jpg 50 KB
Hanuman.com trailer-HD.mp4 31.4 MB
Ikir Mikir-HD.mp4 31.8 MB
Pendu Desi Releaser Note.txt 542 Bytes
Torrent downloaded from Text 59 Bytes
Torrent downloaded from Text 352 Bytes
Torrent downloaded from Text 37 Bytes
Torrent downloaded from Text 124 Bytes
vlcsnap-2013-11-19-19h58m08s27.png 538 KB
vlcsnap-2013-11-19-19h59m29s69.png 592 KB
vlcsnap-2013-11-19-19h59m40s174.jpg 159 KB
vlcsnap-2013-11-19-20h27m39s74.png 589 KB
vlcsnap-2013-11-19-20h27m49s178.png 521 KB
vlcsnap-2013-11-19-20h27m57s0.png 611 KB

Trackers

Tracker Seeds Peers
http://tracker.thepiratebay.org/announce 5 months ago 0 0
udp://11.rarbg.com:80/announce 5 months ago 0 0
udp://tracker.glotorrents.com:6969/announce 5 months ago 0 0
udp://glotorrents.com:6969/announce 5 months ago 0 0
udp://9.rarbg.com:2710/announce 5 months ago 0 0
udp://open.demonii.com:1337/announce 5 months ago 0 0
udp://pow7.com:80/announce 5 months ago 0 0
udp://tracker.publicbt.com:80 5 months ago 0 0
udp://tracker.ccc.de:80 5 months ago 0 0
udp://tracker.openbittorrent.com:80 5 months ago 0 0
http://tracker.nwps.ws:6969/announce 5 months ago 0 0

Share Hanuman.com (2013) Kolkata Bengali Movie_Theaterical Trailer and

Permalink URL
Standard HREF Link Code
Link For Forums
Bookmark

D'autre torrents qui pourraient vous intéresser

Miscellaneous torrents: recherches récentes



www.usenet.nl


Statistiques
AJOUTÉS AUJOURD'HUI
3725 torrent(s)
TOTAL
13217775 torrents

Cinema News


Récentes recherches

Amis


RSS2



DMCA Info  |  Privacy policy  |  Contact  | 
Copyright 2007-2013 SUMOTorrent. All rights reserved.

Download Hanuman.com (2013) Kolkata Bengali Movie_Theaterical Trailer and Torrent