Download All.Cheerleaders.Die.2013.720p.BRRip.x264.HDTorrent

Accedi Accedi Crea un Account Crea un Account Separator English  Francais  Espanol  Italiano  Deutsch
Torrent > Movies > Comedy > All.Cheerleaders.Die.2013.720p.BRRip.x264.HD


All.Cheerleaders.Die.2013.720p.BRRip.x264.HD


Informazioni su All.Cheerleaders.Die.2013.720p.BRRip.x264.HD

- Scarica questo torrent

Seeds 194
Peers 69
Dimensione 775.3 MB
Aggiunto Wednesday, 11 September 2013 at 15:20:37
Commentts 0
Categoria Movies Comedy
Hash b2bf8ecbabf46f266f3adf46af2c7855ebf6a3f9
Segnalazioni Verified (4) - Fake (0) - Password (0) - Virus (0)
Uploader Anonymous

Description

Format : AVI
Format/Info : Audio Video Interleave
Format profile : OpenDML
Overall bit rate : 1 800 Kbps
Writing application : VirtualDubMod 1.5.10.2 (build 2542/release)
Writing library : VirtualDubMod build 2542/release

Video

Format : MPEG-4 Visual
Format settings, BVOP : Yes
Format settings, QPel : No
Format settings, Matrix : Default (MPEG)
Codec ID : x264
Codec ID/Hint : x264
Bit rate : 1 411 Kbps
Width : 1280 pixels
Height : 720 pixels
Display aspect ratio : 16:9
Frame rate : 29.97 fps
Resolution : 24 bits
Colorimetry : 4:2:0
Scan type : Progressive
Bits/(Pixel*Frame) : 0.338
Stream size : 1.03 GiB (78%)

Audio

Format : AC-3
Format/Info : Audio Coding 3
Codec ID : 2000
Bit rate mode : Constant
Bit rate : 384 Kbps
Channel(s) : 6 channels
Channel positions : Front: L C R, Surround: L R, LFE
Sampling rate : 48.0 KHz
Stream size : 287 MiB (21%)
Alignment : Aligned on interleaves
Interleave, duration : 64 ms (1.53 video frames)
Interleave, preload duration : 192 ms

Commenti su All.Cheerleaders.Die.2013.720p.BRRip.x264.HD

00 COMMENT(S) INSIDE

Nessun commento disponibile per questo file!



Post a comment

Username
Password



Files

Filename Size
Dmt Nfo.txt 2 KB
Torrent Downloaded From downloadhindimovies.in.txt 2 KB
All.Cheerleaders.Die.2013.720p.BRRip.x264.HD.avi 10 MB
All.Cheerleaders.Die.2013.720p.BRRip.x264.HD.nfo 2 KB
All.Cheerleaders.Die.2013.720p.BRRip.x264.HD.jpeg 1 MB
Torrent downloaded from h33t.com.txt 2 KB
All.Cheerleaders.Die.2013.720p.BRRip.x264.HD 764 MB

Share All.Cheerleaders.Die.2013.720p.BRRip.x264.HD

Permalink URL
Standard HREF Link Code
Link For Forums
Bookmark

Altri torrenti che potrebbero interessarti

Movies torrents: ricerche recenti



www.usenet.nl


Statistiche Torrenti
AGGIUNTI OGGI
3961 torrenti(e)
TOTALI
13205689 torrenti

Cinema News


Richerche recenti

Amici


RSS2



Info DMCA  |  Informazioni sulla Privacy  |  Contatti  | 
Copyright 2007-2013 ©SUMOTorrent. Tutti i diritti riservati.

Download All.Cheerleaders.Die.2013.720p.BRRip.x264.HDTorrent